Romeo Express (2018) 720p Hindi Dubbed WEBHD x264 AAC 900MB [MovC...

seeders: 23
leechers: 9
updated:
Added by ictv in Other


strongly advises you to use NordVPN while downloading torrents.
NordVPN is the safest VPN on the market, and the fastest VPN as well.
No IP Log is saved using NordVPN, avoid other VPN providers and choose the safest one.
Click here and buy NordVPN it's on rebates today!
We were able to verify your IP: 95.181.183.45 and country: Russian Federation.
If we can do that, others can too, protect your privacy with NordVPN.
is trying the best for you!


Description

Visit Our Site www.movcr.com 

Kathiruppor Pattiyal (2018) Tamil In Hindi Dubbed

http://www.imdb.com/title/tt8176308/ 

  

General
Unique ID                   : 224252811506369116930751362046941856394 (0xA8B5853E21E10F18C04931F45C76028A)
Complete name               : www.MovCr.com - Romeo Express (2018) 720p Hindi Dubbed WEBHD x264 AAC 900MB [MovCr].mkv
Format                      : Matroska
Format version              : Version 4 / Version 2
File size                   : 893 MiB
Duration                    : 1 h 45 min
Overall bit rate            : 1 181 kb/s
Movie name                  : www.MovCr.com
Encoded date                : UTC 2018-07-12 19:04:24
Writing application         : mkvmerge v23.0.0 ('The Bride Said No') 64-bit
Writing library             : libebml v1.3.6 + libmatroska v1.4.9

Video
ID                          : 1
Format                      : AVC
Format/Info                 : Advanced Video Codec
Format profile              : [email protected] 
Format settings, CABAC      : Yes
Format settings, ReFrames   : 3 frames
Codec ID                    : V_MPEG4/ISO/AVC
Duration                    : 1 h 45 min
Bit rate                    : 1 053 kb/s
Width                       : 1 280 pixels
Height                      : 720 pixels
Display aspect ratio        : 16:9
Frame rate mode             : Constant
Frame rate                  : 24.000 FPS
Color space                 : YUV
Chroma subsampling          : 4:2:0
Bit depth                   : 8 bits
Scan type                   : Progressive
Bits/(Pixel*Frame)          : 0.048
Stream size                 : 796 MiB (89%)
Title                       : www.MovCr.com
Default                     : Yes
Forced                      : No
Color range                 : Limited
Color primaries             : BT.709
Transfer characteristics    : BT.709
Matrix coefficients         : BT.709

Audio
ID                          : 2
Format                      : AAC
Format/Info                 : Advanced Audio Codec
Format profile              : LC
Codec ID                    : A_AAC
Duration                    : 1 h 45 min
Bit rate                    : 126 kb/s
Channel(s)                  : 2 channels
Channel positions           : Front: L R
Sampling rate               : 44.1 kHz
Frame rate                  : 43.066 FPS (1024 spf)
Compression mode            : Lossy
Delay relative to video     : 85 ms
Stream size                 : 95.0 MiB (11%)
Title                       : www.MovCr.com
Language                    : Hindi
Default                     : Yes
Forced                      : No

  

 
 
 
 
 
 
 
 

Sharing Widget


Download torrent
Size: 893.1 MB
seeders:23
leechers:9
Romeo Express (2018) 720p Hindi Dubbed WEBHD x264 AAC 900MB [MovC... - (936483225 Bytes)



To share this torrent use the code below and insert it into comments, status messages, forum posts or your signature.

Torrent: Romeo Express (2018) 720p Hindi Dubbed WEBHD x264 AAC 900MB [MovC...

Trackers

tracker name
udp://tracker.coppersurfer.tk:6969/announce
udp://tracker.opentrackr.org:1337/announce
udp://tracker.leechers-paradise.org:6969/announce
udp://9.rarbg.to:2800/announce
udp://9.rarbg.to:2800/announce
udp://eddie4.nl:6969/announce
udp://9.rarbg.to:2800/announce
udp://9.rarbg.to:2800/announce
udp://tracker.doko.moe:6969/announce
udp://tracker.doko.moe:6969/announce
udp://thetracker.org:80/announce
udp://thetracker.org:80/announce
udp://bt.xxx-tracker.com:2710/announce
udp://bt.xxx-tracker.com:2710/announce
udp://tracker.zer0day.to:1337/announce
udp://tracker.leechers-paradise.org:6969/announce
udp://coppersurfer.tk:6969/announce
ĀµTorrent compatible trackers list

Locations

name
KickassTorrents
Torrent hash: BBE1E406CF58F1D6578DAAFA70271C412C0BD2FC

strongly advises you to use NordVPN while downloading torrents.
NordVPN is the safest VPN on the market, and the fastest VPN as well.
No IP Log is saved using NordVPN, avoid other VPN providers and choose the safest one.
Click here and buy NordVPN it's on rebates today!
We were able to verify your IP: 95.181.183.45 and country: Russian Federation.
If we can do that, others can too, protect your privacy with NordVPN.
is trying the best for you!

All Comments

*comments box temporarily disabled*
Report a bug